Перейти к содержанию

jh_action.png

1920x420_Labkable_3-_1_.webp

1920x420.webp

drhead_live.jpg

1920x420_Auris-_3.webp

1920x420_new_3.jpg

1920x420_Listening.webp

1920x420_2.webp

custom_mic2.jpg

1920x420-_31_.jpg

Авторизация  
alexsius

hifiman 603 не видит файлы

Рекомендуемые сообщения

Народ помогите, скидываю песни в формате FLAC например Exact Audio Copy V1.0 beta 3 from 29. August 2011

EAC extraction logfile from 8. March 2012, 6:50

Ben L'Oncle Soul / Ben L'Oncle Soul

Used drive : HL-DT-STDVDRAM GH22NS70 Adapter: 1 ID: 0

Read mode : Secure

Utilize accurate stream : Yes

Defeat audio cache : Yes

Make use of C2 pointers : No

Read offset correction : 667

Overread into Lead-In and Lead-Out : No

Fill up missing offset samples with silence : Yes

Delete leading and trailing silent blocks : No

Null samples used in CRC calculations : Yes

Used interface : Native Win32 interface for Win NT & 2000

Gap handling : Appended to previous track

Used output format : User Defined Encoder

Selected bitrate : 1024 kBit/s

Quality : High

Add ID3 tag : No

Command line compressor : C:\Program Files\Exact Audio Copy\Flac\flac.exe

Additional command line options : -V -8 -T "Genre=%genre%" -T "Artist=%artist%" -T "Title=%title%" -T "Album=%albumtitle%" -T "Date=%year%" -T "Tracknumber=%tracknr%" -T "Comment=%comment%" %source%

TOC of the extracted CD

Track | Start | Length | Start sector | End sector

---------------------------------------------------------

1 | 0:00.00 | 2:57.64 | 0 | 13338

2 | 2:57.64 | 3:42.35 | 13339 | 30023

3 | 6:40.24 | 2:52.57 | 30024 | 42980

4 | 9:33.06 | 3:50.40 | 42981 | 60270

5 | 13:23.46 | 4:05.44 | 60271 | 78689

6 | 17:29.15 | 4:23.63 | 78690 | 98477

7 | 21:53.03 | 3:47.07 | 98478 | 115509

8 | 25:40.10 | 4:48.20 | 115510 | 137129

9 | 30:28.30 | 3:51.00 | 137130 | 154454

10 | 34:19.30 | 4:17.17 | 154455 | 173746

11 | 38:36.47 | 3:07.32 | 173747 | 187803

12 | 41:44.04 | 4:11.26 | 187804 | 206654

13 | 45:55.30 | 3:34.35 | 206655 | 222739

14 | 49:29.65 | 4:44.66 | 222740 | 244105

Track 1

Filename I:\Bitt_Upload\Ben L'Oncle Soul-[2010]-Ben L'Oncle Soul_flac\01. Ben L'Oncle Soul - Seven Nation Army ('White Stripes' cover).wav

Pre-gap length 0:00:02.00

Peak level 96.6 %

Extraction speed 0.9 X

Track quality 100.0 %

Test CRC FD90C90C

Copy CRC FD90C90C

Track not present in AccurateRip database

Copy OK

он упорно у меня не видит, такая же ситуация и с другими файлами этого формата. А вот мп3 видит. Я явно что то не догоняю, подскажите пожалуйста

Поделиться сообщением


Ссылка на сообщение
Поделиться на другие сайты

Перепрошивать пробовали? Куда скидываете файлы? Во внутреннюю память?


Xiaomi Mi 5s - Cian25 - юххуу

Поделиться сообщением


Ссылка на сообщение
Поделиться на другие сайты

а если другой лузлесс формат?


Топчик на продажу

 

1. KOSS ESP-6

2. Beyerdynamic DT220 (аналог 150х)

3. Те самые Биги на 400-600 Ом

4. Тдс-5 с любым сопротивлением

5. Корпуса и запчасти винтаж

 

Секты: PRO/4 и Ovation

Поделиться сообщением


Ссылка на сообщение
Поделиться на другие сайты

Присоединяйтесь к обсуждению

Вы можете написать сейчас и зарегистрироваться позже. Если у вас есть аккаунт, авторизуйтесь, чтобы опубликовать от имени своего аккаунта.

Гость
Ответить в этой теме...

×   Вставлено с форматированием.   Вставить как обычный текст

  Разрешено использовать не более 75 эмодзи.

×   Ваша ссылка была автоматически встроена.   Отображать как обычную ссылку

×   Ваш предыдущий контент был восстановлен.   Очистить редактор

×   Вы не можете вставлять изображения напрямую. Загружайте или вставляйте изображения по ссылке.

Загрузка...
Авторизация  

  • Последние посетители   0 пользователей онлайн

    Ни одного зарегистрированного пользователя не просматривает данную страницу

×
×
  • Создать...